» » » David Snyder - Killer Influence
Information to the news
  • Views: 0
  • Author: buby2009
  • Date: 8-11-2018, 13:57
8-11-2018, 13:57

Free Download David Snyder - Killer Influence

Category: Tutorials / Other Tutorial

David Snyder - Killer Influence
David Snyder - Killer Influence
WEBRip | English | MP4 | 720 x 404 | AVC ~1492 kbps | 29.970 fps
AAC 128 Kbps 48.0 KHz | 2 channels | 19:16:34 | 10.6 GB
Genre: eLearning Video / Self Improvement


Experience the single MOST POWERFUL covert influence techniques known today through the Killer Influence course. Learn the secrets of covert hypnotic influence and discover how you can use these techniques to create a tremendous amount of influence in your personal and professional life. Instantly allow yourself to heal, grow, and make all of your dreams happen.
The Killer Influence system will expand on the lessons learned in the Conversational Persuasion & Influence course, and give you even more awareness and control over your internal emotional states - and what that means for exerting influence in the world.Once you are ready, Killer Influence will teach youR30;
- How To Create DEEP And Powerful Connections With People
- How To Control Your State At Will
- How To Connect With Another Human Beings Nervous System,
- How To Use That Connection To Send Feelings To Them
- Have Them Be More Open To Your Influence
- How To Manage Their Emotional State From Across The Room
- How To Tap In To The Secret Processes They Use To Make Decisions
- How To Automatically Target The Emotional Triggers And Hot Buttons That Make Them Do EXACTLY What You Want Them To Do
- How To Be A Master Hypnotist
- Learn The Hidden Secrets Of Social Hypnotic Operators
- Learn How to Cold Read Any Human
- Learn The Hidden Secrets Of Proxemic Hypnotic Operators
- Learn The Most Powerful Language Patterns On The Planet
- How To Influence Attraction
- Learn The Four Pillars Of Hypnotic Influence
- Learn Exactly How To Get People To Comply To You

If you are one of the lucky few that are ready to take your influence skills to the next level, take action now with Killer Influence. Join David Snyder in expanding your hypnotic and influence skills in ways you never before thought possible.

Price: 395$
More Info: Salepage


General
Complete name : [email protected]
Format : MPEG-4
Format profile : Base Media / Version 2
Codec ID : mp42 (mp42/isom/avc1)
File size : 601 MiB
Duration : 51 min 39 s
Overall bit rate mode : Variable
Overall bit rate : 1 627 kb/s
Encoded date : UTC 2017-04-12 03:35:09
Tagged date : UTC 2017-04-12 03:37:23

Video
ID : 1
Format : AVC
Format/Info : Advanced Video Codec
Format profile : [email protected]
Format settings : CABAC / 1 Ref Frames
Format settings, CABAC : Yes
Format settings, RefFrames : 1 frame
Format settings, GOP : M=1, N=24
Codec ID : avc1
Codec ID/Info : Advanced Video Coding
Duration : 51 min 39 s
Bit rate mode : Constant
Bit rate : 1 492 kb/s
Width : 720 pixels
Height : 404 pixels
Display aspect ratio : 16:9
Frame rate mode : Constant
Frame rate : 29.970 (30000/1001) FPS
Color space : YUV
Chroma subsampling : 4:2:0
Bit depth : 8 bits
Scan type : Progressive
Bits/(Pixel*Frame) : 0.171
Stream size : 551 MiB (92%)
Encoded date : UTC 2017-04-12 03:35:09
Tagged date : UTC 2017-04-12 03:37:23
Color range : Limited
Color primaries : BT.601 NTSC
Transfer characteristics : BT.709
Matrix coefficients : BT.601
colour_primaries_Original : BT.709
transfer_characteristics_Original : BT.709
matrix_coefficients_Original : BT.709

Audio
ID : 2
Format : AAC
Format/Info : Advanced Audio Codec
Format profile : LC
Codec ID : mp4a-40-2
Duration : 51 min 39 s
Bit rate mode : Variable
Bit rate : 128 kb/s
Maximum bit rate : 131 kb/s
Channel(s) : 2 channels
Channel positions : Front: L R
Sampling rate : 48.0 kHz
Frame rate : 46.875 FPS (1024 SPF)
Compression mode : Lossy
Stream size : 47.3 MiB (8%)
Title : English (aac 2.0)
Language : English
Default : Yes
Alternate group : 1
Encoded date : UTC 2017-04-12 03:35:09
Tagged date : UTC 2017-04-12 03:37:23

David Snyder - Killer Influence

Download link:

Download From Rapidgator.net
https://rapidgator.net/file/03b771184eef847c0c0991920f55fde3/e53gr.David.Snyder..Killer.Influence.part1.rar.html
https://rapidgator.net/file/e2b73e48dc2b0b3317d8d97904bec355/e53gr.David.Snyder..Killer.Influence.part2.rar.html
https://rapidgator.net/file/cf56793db4048788adbbe95f9224eb87/e53gr.David.Snyder..Killer.Influence.part3.rar.html
https://rapidgator.net/file/737566c5fae6921bdcf8028323e9bcfb/e53gr.David.Snyder..Killer.Influence.part4.rar.html
https://rapidgator.net/file/b9354bd1624c8332d66416f46e55362c/e53gr.David.Snyder..Killer.Influence.part5.rar.html
https://rapidgator.net/file/8a4ee379d6781816470303776ace0d41/e53gr.David.Snyder..Killer.Influence.part6.rar.html

Download From Uploadgig.com
https://uploadgig.com/file/download/51a8865145a36eb4/e53gr.David.Snyder..Killer.Influence.part1.rar
https://uploadgig.com/file/download/7be18f4B81585464/e53gr.David.Snyder..Killer.Influence.part2.rar
https://uploadgig.com/file/download/acC45935B468ccdc/e53gr.David.Snyder..Killer.Influence.part3.rar
https://uploadgig.com/file/download/6dfa94dEfb392850/e53gr.David.Snyder..Killer.Influence.part4.rar
https://uploadgig.com/file/download/04d94210E6d68483/e53gr.David.Snyder..Killer.Influence.part5.rar
https://uploadgig.com/file/download/0d8Ce34A68f93247/e53gr.David.Snyder..Killer.Influence.part6.rar

Download From Nitroflare.com
http://nitroflare.com/view/1C53CA67EDAEE85/e53gr.David.Snyder..Killer.Influence.part1.rar
http://nitroflare.com/view/5977D2410BE2939/e53gr.David.Snyder..Killer.Influence.part2.rar
http://nitroflare.com/view/B0838CC20E1374D/e53gr.David.Snyder..Killer.Influence.part3.rar
http://nitroflare.com/view/C281401EC1CA5DF/e53gr.David.Snyder..Killer.Influence.part4.rar
http://nitroflare.com/view/41FAE0E365C71DE/e53gr.David.Snyder..Killer.Influence.part5.rar
http://nitroflare.com/view/82D1A5076DBD170/e53gr.David.Snyder..Killer.Influence.part6.rar

Links are Interchangeable - No Password - Single Extraction
Dear visitor, you entered the site as an unregistered user.
We recommend you to register or login to the website using your name.

Tags

News archive

^